#TITLE:I believe;
#SUBTITLE:;
#ARTIST:Tata Young;
#TITLETRANSLIT:;
#SUBTITLETRANSLIT:;
#ARTISTTRANSLIT:;
#CREDIT:;
#BANNER:ibelive-logo.jpg;
#BACKGROUND:ibelive.jpg;
#LYRICSPATH:;
#CDTITLE:Lan.png;
#MUSIC:I believe.mp3;
#OFFSET:-0.040;
#SAMPLESTART:100.000;
#SAMPLELENGTH:12.000;
#SELECTABLE:YES;
#BPMS:0.000=117.020;
#STOPS:;
#BGCHANGES:;
// cache tags:
#FIRSTBEAT:8.000;
#LASTBEAT:280.000;
#SONGFILENAME:Songs/SDO/I believe/I believe.sm;
#HASMUSIC:1;
#HASBANNER:1;
#MUSICLENGTH:146.093;
// end cache tags

//---------------dance-single - sky----------------
#NOTES:
     dance-single:
     sky:
     Hard:
     9:
     0.871,1.000,1.000,0.034,0.811,726.000,160.000,5.000,0.000,1.000:

0000
0000
0000
0000
,
0000
0000
0000
0000
,
0100
0000
0000
1000
0010
0000
0100
0000
0000
1000
0001
0000
0100
0000
0001
0000
,
0010
0000
0000
0001
0100
0000
0010
0000
0000
0001
1000
0000
0010
0000
0100
0000
,
0010
0000
0000
1000
0010
0000
0100
0000
0000
1000
0001
0000
0100
0000
0001
0000
,
0100
0000
0000
0001
0100
0000
0010
0000
0000
0001
1000
0000
0010
0000
0100
0000
,
0101
0000
1000
0010
0101
0000
1000
0000
1010
0100
0010
0000
1100
0000
0010
0000
,
1100
0000
0010
0100
0011
0000
0001
0000
1100
0010
0100
0000
0011
0000
0100
0000
,
0011
0000
0010
0100
1010
0000
0100
0000
0011
1000
0001
0000
0110
0000
0001
0000
,
1100
0000
1000
0001
0110
0000
0010
0000
1010
0001
1000
0000
0110
0000
0100
0000
,
0011
0100
1010
0001
0100
0010
0101
1000
,
1010
0100
0011
0100
1000
0010
1100
0001
,
0110
1000
0011
0100
1000
0010
1100
0010
,
0101
0100
1000
0001
0100
0010
0001
1000
,
0011
0100
1010
0001
0100
0010
0101
1000
,
1010
0100
0011
0100
1000
0010
1100
0001
,
0110
1000
0011
0100
1000
0010
1100
0010
,
0101
0100
1010
0001
0100
0010
0101
1000
,
0100
0000
0001
1000
0010
0000
0100
0000
0010
1000
0001
0000
0100
0000
0001
0000
,
0010
0000
1000
0001
0100
0000
0010
0000
0100
0001
1000
0000
0010
0000
0100
0000
,
0010
0000
0001
1000
0010
0000
0100
0000
0010
1000
0001
0000
0100
0000
0001
0000
,
0100
0000
1000
0001
0100
0000
0010
0000
0100
0001
1000
0000
0010
0000
0100
0000
,
0001
1000
0101
0010
1000
0010
0101
0100
,
1000
0010
1100
0010
0100
0010
0011
0100
,
1000
0000
0010
0000
0101
0000
0010
0000
1000
0000
0010
0000
1100
0010
0001
1000
,
0110
0000
0000
0101
0000
0000
0110
0000
1010
0000
0000
0000
0011
0000
0000
0000
,
0101
0010
1000
0010
0101
0010
1000
0100
1010
0100
0010
0001
1100
0100
0010
0001
,
1100
0001
0010
0100
0011
1000
0001
0010
1100
0010
0100
1000
0011
0100
1000
0100
,
0011
0100
0010
0100
1010
0001
0100
1000
0011
1000
0001
0100
0110
1000
0001
0010
,
1100
0010
1000
0001
0110
1000
0010
0100
1010
0001
1000
0010
0110
1000
0100
0010
,
0101
0010
1000
0010
0101
0100
1000
0001
1010
0100
0010
0001
1100
0100
0010
0001
,
1100
1000
0010
0100
0011
1000
0001
0010
1100
0010
0100
1000
0011
1000
0100
0010
,
0011
0100
0010
0100
1010
0001
0100
0001
0011
1000
0001
1000
0110
0100
0001
0010
,
1100
0010
1000
0001
0110
1000
0010
0100
1010
0100
1000
0001
0110
1000
0100
0010
,
0002
0000
0000
0000
,
2003
0000
0000
0000
,
3020
0000
0000
0000
,
0230
0000
0000
0000
,
0311
1000
0110
0001
1100
0010
0101
0100
,
1100
0010
0101
1000
0110
0010
0101
1000
,
1100
0010
0110
0001
1010
0100
0101
0001
,
1010
0000
0100
0000
0011
0000
0001
0000
0100
1000
0010
0100
0001
0000
0100
0000
,
1001
0100
0101
0010
1000
0010
0101
0010
,
1010
0001
1100
0010
1000
0010
0101
0001
,
0110
1000
0101
0001
1000
0010
0101
1000
,
0101
0010
1100
0010
0100
0001
0110
1000
,
1010
0100
0011
0100
0010
1000
0110
0001
,
0101
1000
0110
1000
0001
0100
0101
0010
,
1100
0010
0110
1000
0001
1000
1010
0001
,
1010
0100
0110
1000
1100
0010
0011
0100
,
0001
1000
0010
0100
0001
1000
0100
0001
0010
1000
0100
0001
0010
1000
0100
0010
,
0001
0100
0010
1000
0010
0100
0001
0010
1000
0010
0100
0001
0010
1000
0100
1000
,
0010
0100
0001
0010
1000
0010
0100
0001
0010
1000
0100
0010
0001
0100
0010
1000
,
0010
0001
0100
0010
1000
0100
0001
0010
1000
0100
0001
0010
1000
0100
0010
0001
,
0100
1000
0010
0100
0001
0010
1000
0100
1000
0010
0001
0100
0010
0100
0001
0010
,
1000
0010
0001
0100
0010
1000
0100
0001
0010
1000
0100
1000
0001
0010
0100
0010
,
0001
1000
0100
0010
0100
0001
0010
1000
0010
0100
0001
0010
1000
0100
0001
0010
,
1000
0100
0010
1000
0001
0100
0010
1000
0001
0100
0001
0100
0001
0100
0001
0100
,
1010
0001
0010
0100
0011
1000
0001
0010
1100
0010
0100
1000
0011
0100
1000
0100
,
0011
0100
0010
0100
1010
0001
0100
1000
0011
1000
0001
0100
0110
1000
0001
0010
,
1100
0010
1000
0001
0110
1000
0010
0100
1010
0001
1000
0010
0110
1000
0100
0010
,
0101
0010
1000
0010
0101
0100
1000
0001
1010
0100
0010
0001
1100
0100
0010
0001
,
1100
1000
0010
0100
0011
1000
0001
0010
1100
0010
0100
1000
0011
1000
0100
0010
,
0011
0100
0010
0100
1010
0001
0100
0001
0011
1000
0001
1000
0110
0100
0001
0010
,
1100
0010
1000
0001
0110
1000
0010
0100
1010
0100
1000
0001
0110
1000
0100
0010
,
1010
0001
0010
0100
0011
1000
0001
0010
1100
0010
0100
1000
0011
0100
1000
0100
,
0011
0100
0010
0100
1010
0001
0100
1000
0011
1000
0001
0100
0110
1000
0001
0010
,
1100
0010
1000
0001
0110
1000
0010
0100
1010
0001
1000
0010
0110
1000
0100
0010
,
0002
0000
0000
0000
,
0000
0000
0000
0000
,
0003
0000
0000
0000
;
